#TITLE:Todeswalzer by young_editer@hotmail.com;
#ARTIST:Windir;
#FILE:Todeswalzer.mp3;
#BPM:84.000;
#GAP:-340;
#SAMPLESTART:99.860;
#SAMPLELENGTH:12.000;
#CDTITLE:Nepex-Chart.bmp;
#CHANGEBPM:72.000=168.000,1784.000=84.000,1836.000=168.000,2360.000=224.140,2744.000=168.000;
#SINGLE:MANIAC:14:
(00000000409!99201!11)
(607!77A!AA9!99261!11B!BBA!A<81>)
(409!99A!AAB!BB801!11803!33)
(403!33A!AA1!1<81>46A!AAB!BB9!9<83>)
(20A!AAB!BB3!3<83>86282828)
(4246262628284282)
(4628284286286826)
(8242824628462642)
(8262426242624286)
(8486826286282428)
(2428684286284282)
(8626428242868249)
(186262797!867!427!867!42)
(B!629!867!427!827!461!283!68B!42)
(7!86A!283!68B!427!829!62B!461!26)
(A!86A!281!481!283!683!281!481!28)
(3!68B826862!261!461!26A!86)
(7!461!26A!86A!281!481!26A!867!42)
(7!86A!283!68B!427!827!461!26A!86)
(A!26A!827!481!281!461!283!683!28)
(1!427!86A!261!461!261!427!827!46)
(7!827!467!827!427!827!427!829!62)
(9!867!467!827!467!827!467!86A!26)
(1!461!26A!867!427!829!629!86A!26)
(A!827828462!283!68B!481!26)
(A!867!427!86A!281!467!86A!261!48)
(1!281!461!26A!827!427!827!467!82)
(7!467!827!427!867!48B!643!26A!86)
(A!261!42B!62B!46<4A!A>000<19>000)
84308010
(6020706660007!7000)
<81>4906070
{20000000800000001!1000000000000004<2B!B>000000000000000<19>000000000000000}
62904030
4670607!70
<81>6A08090
{20000000800000001!1000000000000002<43!3>000400080004000<83>000200060004000}
(8264628468286262)
(8682428682482648)
(2846284626264828)
(482846828!867!427!867!42)
(B!629!867!427!827!461!283!68B!42)
(7!86A!283!68B!427!829!62B!461!26)
(A!86A!281!481!283!683!281!481!28)
(3!68B826862!261!461!26A!86)
(7!461!26A!86A!281!481!26A!867!42)
(7!86A!283!68B!427!827!461!26A!86)
(A!26A!827!481!281!461!283!683!28)
(1!427!86A!261!461!261!427!827!46)
(7!827!467!827!427!827!427!829!62)
(9!867!467!827!467!827!467!86A!26)
(1!461!26A!867!427!829!629!86A!26)
(A!827828462!283!68B!481!26)
(A!867!427!86A!281!467!86A!261!48)
(1!281!461!26A!827!427!827!467!82)
(7!467!827!427!867!48B!643!26A!86)
(<92!2>9<34!4>2B!62B!467!867!427!867!42)
(B!629!867!427!827!461!283!68B!42)
(7!86A!283!68B!427!829!62B!461!26)
(A!86A!281!481!283!683!281!481!28)
(3!68B826862!261!461!26A!86)
(7!461!26A!86A!281!481!26A!867!42)
(7!86A!283!68B!427!827!461!26A!86)
(A!26A!827!48<B2!2>9<A4!4>61!283!683!28)
(1!427!86A!261!46<4A!A>000<81>444)
(2222200066668888)
(2222444440008888)
(2222200088882222)
(44448888B!B282<8B>262)
(6828642828628286)
(8282868284242424)
(6424628268286428)
(6286286820004444)
(2222200066668888)
(2222444440008888)
(2222200088882222)
(4444666660004444)
(2222200022228888)
(4444222220006666)
(8888800022228888)
(6666888880004444)
(2222200066668888)
(2222444440008888)
(2222200088882222)
(4444666660004444)
(2222200022228888)
(4444222220006666)
(8888800022228888)
(6666888880004444)
(2222200066668888)
(2222444440008888)
(2222200088882222)
(4444666660004444)
(2222200022228888)
(4444222220006666)
(8888800022228888)
(66668888A0666030)
(70B01022209010A0)
(B022209030A07044)
(4030901030666010)
(70B0A08880301070)
(B022201090A0B044)
(4030901030222010)
(70B0A08880B010A0)
(90444090B0A07088)
(8070B0A0902220B0)
(A07090222070A090)
(7022207090307022)
(20A0109070666070)
(30B0A04440309010)
(7066601090703022)
(20A07030703!33601!11)
(80B!BB9!993!33861!11B!BB7!7<8B>)
(601!11A!AA3!336086B!B<8B>1!1<61>)
(88B!B<61>9!9<83>46A!A<83>7!7<81>6464)
(82826464A6262828)
(4282862682862828)
(4246264246264246)
(8642468648482848)
(4828428246262642)
(4642464248286828)
(2842828626268642)
(4628284282864286)
(2828428286262842)
(8628424846268286)
(8628424628428628)
(2846268642864286)
(8246824286428682)
(4682428682428626)
(2682682642862864)
(2864286824284286)
(4286262686268626)
(4248684868486848)
(6826242624282428)
(4828486826268642)
(4628428682424626)
(2828462642462868)
(2848284286268248)
(4626428626864248)
(2842824620004444)
(2222200066668888)
(2222444440008888)
(2222200088882222)
(4444666660004444)
(2222200022228888)
(4444222220006666)
(8888800022228888)
`600000000000600000000000600000000000600000000000800000000000800000000000800000000000800000000000800000000000000040000000000000008000000000000000200000000000000080000000000000004000000000000000'
[208060206020802080408020]
[804020806020608020406020]
[804080206080408060208020]
[804080206020804020806080]
[208060802040208060802040]
[208020402080608020806080]
[204020802040208060802080]
[608020402080204020806080]
[602060208020402080402080]
[602060802080604020802040]
[602080208040802080402080]
[602060802080408060206040]
[204080208040602060806020]
[604020408020804080208060]
[802080402080208060206040]
[208020408020804080208040]
[208020408020804020806020]
[802060802080602060806020]
[802060802080602080206080]
[204020802040208020408020]
[402080402080204080204020]
[804020806080208060208060]
[802060802080602060402080]
`200000000000000080000000000000002000000000000000800000000000000040000000000000008000000000000000000000000000300000000000000000000000900000000000000000000000B00000000000000000000000100000000000'
(0A03070A0B030901)
(0A0703090B010A07)
(03090B010A070309)
(0B010A0309010A09)
(0A0B010B03090A0B)
(070103090B030903)
(01070A0B0A03090B)
(010A0B010703090B)
(0103090B070A0703)
(090B070A03090B01)
(0A0B03090B010701)
(0B030B0703090103)
(090B070A03090B07)
(03070A03090B070A)
(0703090B82800000)
(200062828403090B)
(010A0703090B0107)
(0A0703090B010703)
(090B0A0103090B01)
(0903090B01070A0B)
(03090B01070A0B03)
(090B010A0703090B)
(010A0703090B0309)
(0B010A0703090307)
(030B03090B010A03)
(0B010A030A010307)
(0A030B03090B0A07)
(0A030B010A070309)
(0B0A0309!900000000)
00000000
00009000
;
#SINGLE:SMANIAC:15:
(00000000109!99A01!11)
(907!77A!AA9!99A91!11B!BBA!A<19>)
(309!99A!AAB!BBA01!11903!33)
(703!33A!AA1!1<19>B7A!AAB!BB9!9<19>)
(A0A!AAB!BB3!3<19>86182838)
(4276261628184292)
(461828B286186816)
(82B2827628162672)
(82B2429242924276)
(84A682B286182438)
(243868B286184292)
(86A64292427682B9)
(186262797!86<94!4>27!86<94!4>2)
(B!62<B8!8>67!42<B8!8>27!46<72!2>83!68<94!4>2)
(7!86<72!2>83!68<94!4>27!82<76!6>2B!46<72!2>6)
(A!86<72!2>81!48<B2!2>83!68<B2!2>81!48<B2!2>8)
(3!68<61>826762!26<A4!4>61!26<18!8>6)
(7!46<72!2>6A!86<72!2>81!48<72!2>6A!86<94!4>2)
(7!86<72!2>83!68<94!4>27!82<A4!4>61!26<18!8>6)
(A!26<18!8>27!48<B2!2>81!46<B2!2>83!68<B2!2>8)
(1!42<18!8>6A!26<A4!4>61!26<A4!4>27!82<94!4>6)
(7!82<A4!4>67!82<94!4>27!82<94!4>27!82<76!6>2)
(9!86<A4!4>67!82<A4!4>67!82<94!4>67!86<72!2>6)
(1!46<72!2>6A!86<94!4>27!82<76!6>29!86<72!2>6)
(A!82<8B>828162!28<16!6>8B!48<72!2>6)
(A!86<94!4>27!86<72!2>81!46<18!8>6A!26<A4!4>8)
(1!28<34!4>61!26<18!8>27!42<B8!8>27!46<18!8>2)
(7!46<18!8>67!42<B8!8>27!48B!643!26A!86)
(A!261!42B!62B!46<4A!A>000<19>000)
84308010
(6020706660007!7000)
<81>4906070
{20000000800000001!1000000000000004<2B!B>000000000000000<19>000000000000000}
62904030
4672607!70
<81>6A08090
{20000000800000001!1000000080000002<43!3>000400080004000<19>000200060004000}
(826492846828B262)
(8682B28682481648)
(2846184626261828)
(48381!1000<18!8>6<94!4>27!86<A4!4>2)
(B!62<B8!8>67!42<B8!8>27!46<72!2>83!68<94!4>2)
(7!86<72!2>83!68<94!4>27!82<76!6>2B!46<72!2>6)
(A!86<72!2>81!48<B2!2>83!68<B2!2>81!48<B2!2>8)
(3!68<61>826A62!26<A4!4>61!26<18!8>6)
(7!46<72!2>6A!86<72!2>81!48<72!2>6A!86<94!4>2)
(7!86<72!2>83!68<94!4>27!82<94!4>61!26<18!8>6)
(A!26<18!8>27!48<B2!2>81!46<B2!2>83!68<B2!2>8)
(1!46<18!8>6A!26<A4!4>61!26<A4!4>27!82<A4!4>6)
(7!82<94!4>67!82<94!4>27!82<94!4>27!82<76!6>2)
(9!86<A4!4>67!82<94!4>67!82<94!4>67!86<72!2>6)
(1!46<72!2>6A!86<94!4>27!82<76!6>29!86<72!2>6)
(A!82<8B>828162!28<16!6>8B!48<72!2>6)
(A!86<94!4>27!86<72!2>81!46<18!8>6A!26<A4!4>8)
(1!28<A4!4>61!26<18!8>27!42<B8!8>27!46<B8!8>2)
(7!46<B8!8>27!42<18!8>67!48<16!6>43!26<18!8>6)
(A!29<34!4>AB!62B!467!86<A4!4>27!86<94!4>2)
(B!62<B8!8>67!42<B8!8>27!46<B2!2>83!68<94!4>2)
(7!86<72!2>83!68<94!4>27!82<76!6>2B!46<72!2>6)
(A!86<72!2>81!48<B2!2>83!68<B2!2>81!48<B2!2>8)
(3!68<61>826762!26<A4!4>61!26<18!8>6)
(7!46<72!2>6A!86<72!2>81!48<72!2>6A!86<94!4>2)
(7!86<72!2>83!68<94!4>27!82<94!4>61!26<18!8>6)
(A!26<18!8>27!481!29<A4!4>61!283!683!28)
(1!427!86A!261!46<4A!A>000<19>444)
(2222A00066667888)
(2222B4444000A888)
(2222100088883222)
{4000400040004000A000800080008000B!B000200080002004<8B>000200060002000}
(6828342828627286)
(8282768284243424)
(6424928268283428)
(6286486820007444)
(2222A00066667888)
(2222B44440007888)
(2222300088881222)
(4444966660007444)
(2222300022227888)
(444432222000B666)
(8888A00022227888)
(6666A88880001444)
(2222A0006666A888)
(2222B4444000A888)
(2222300088881222)
(4444366660007444)
(2222100022229888)
(4444A2222000B666)
(8888A00022227888)
(6666A88880001444)
(2222A0006666A888)
(2222744440007888)
(2222300088881222)
(444496666000B444)
(2222A00022227888)
(444432222000B666)
(8888A00022227888)
(66667888A0666030)
(70B01022209010A0)
(B022209030A07044)
(4030901030666010)
(70B0A08880301070)
(B022201090A0B044)
(4030901030222010)
(70B0A08880B010A0)
(90444090B0A07088)
(8070B0A0902220B0)
(A07090222070A090)
(7022207090307022)
(20A0109070666070)
(30B0A04440309010)
(7066601090703022)
(20A07030703!33901!11)
(90B!BB9!993!33791!11B!BB7!7<19>)
(B01!11A!AA3!33B0A9B!B<19>1!1<19>)
(A7B!B<19>9!9<19>73A!A<19>7!7<19>8888)
(4444666694242828)
(4282762682862828)
(4246264246267246)
(8642468648482848)
(4828B28246262642)
(464246424828B828)
(2842828626268642)
(4628384282864286)
(2828428286261842)
(8628424846268286)
(8628B24628428628)
(2846268642867286)
(8246824286428682)
(4682B28682428626)
(2682682642861864)
(2864286824284286)
(4286162686268626)
(4248684868483848)
(6826242624282428)
(4828B86826268642)
(4628428682427626)
(2828462642462868)
(2848384286268248)
(4626428626867248)
(28428246A0007444)
(222230006666A888)
(2222B44440007888)
(2222100088883222)
(444436666000B444)
(2222100022229888)
(4444A22220003666)
(8888700022229888)
`600000000000600000000000600000000000600000000000A00000000000800000000000800000000000800000000000800000000000000040000000000000008000000000000000300000000000000080000000000000004000000000000000'
[208060106020802080B08020]
[804020706020608020706020]
[804080106080408060108020]
[804080106020804020706080]
[208060702040208060702040]
[208020B02080608020706080]
[204020902040208060702080]
[608020702080204020706080]
[602060108020402080B02080]
[602060702080604020902040]
[602080308040802080B02080]
[602060702080408060A06040]
[204080308040602060706020]
[604020B08020804080108060]
[802080B02080208060106040]
[208020B08020804080308040]
[208020B08020804020706020]
[802060702080602060706020]
[802060702080602080106080]
[204020802040208020B08020]
[402080B02080204080304020]
[804020706080208060108060]
[802060702080602060702080]
`200000000000000080000000000000002000000000000000900000000000000040000000000000008000000000000000400000000000300000000000400000000000900000000000200000000000B00000000000800000000000100000000000'
(6A43676A8B834921)
(6A2763492B816A67)
(43492B816A678349)
(2B816A4349816A49)
(4A8B818B83494A8B)
(276183492B834943)
(81676A2B6A43492B)
(816A8B816783492B)
(8183492B276A6783)
(492B276A43492B81)
(6A8B83492B816761)
(8B838B2763498183)
(492B276A43492B27)
(83676A43492B276A)
(6783492B82800000)
(200062828403492B)
(816A6743492B8167)
(6A6783492B816743)
(492B8A6183492B81)
(4943492B81676A8B)
(83492B81676A2B83)
(492B816A6783492B)
(816A6783492B8349)
(2B816A6743494367)
(838B83492B816A43)
(8B816A434A618367)
(6A438B83492B8A67)
(6A438B816A674349)
(2B6A4349!900000000)
00000000
00009000
;
